<?xml version="1.0" standalone="no"?>
<!DOCTYPE svg PUBLIC "-//W3C//DTD SVG 1.1//EN" "http://www.w3.org/Graphics/SVG/1.1/DTD/svg11.dtd" >
<svg>
<metadata>
Created by FontForge 20110222 at Thu Dec 29 18:55:15 2011
 By PJ Onori,,,
Icons by PJ Onori, font creation script by Yann
</metadata>
<defs>
<font id="IconicFill" horiz-adv-x="1030" >
  <font-face 
    font-family="Untitled1"
    font-weight="500"
    font-stretch="normal"
    units-per-em="1000"
    panose-1="2 0 6 3 0 0 0 0 0 0"
    ascent="800"
    descent="-200"
    bbox="15 -200.031 1015.02 800.008"
    underline-thickness="50"
    underline-position="-100"
    unicode-range="U+0023-E079"
  />
    <missing-glyph />
    <glyph glyph-name="numbersign" unicode="#" horiz-adv-x="905" 
d="M890 425h-172l-31.125 -250h203.125v-125h-218.75l-31.25 -250h-125.062l31.25 250h-249.938l-31.25 -250h-125l31.25 250h-156.25v125h171.875l31.1875 250h-203.062v125h218.688l31.25 250h125l-31.25 -250h249.938l31.25 250h125l-31.25 -250h156.375v-125z
M561.812 175l31.1875 250h-249.938l-31.1875 -250h249.938z" />
    <glyph glyph-name="question" unicode="?" horiz-adv-x="530" 
d="M190 -137.5c0 41.667 20.833 62.5 62.5 62.5s62.5 -20.833 62.5 -62.5s-20.833 -62.5 -62.5 -62.5s-62.5 20.833 -62.5 62.5zM254.875 -11.7812c-43.125 0 -79.9482 15.2607 -110.469 45.7812s-45.7812 67.3438 -45.7812 110.469s15.2607 79.9482 45.7812 110.469
l209 209c24.3955 24.3633 36.5938 53.8223 36.5938 88.375c0 34.5645 -12.208 64.0225 -36.625 88.375c-24.3701 24.3857 -53.8223 36.585 -88.3555 36.5977s-63.9775 -12.1865 -88.332 -36.5977c-24.458 -24.3936 -36.6875 -53.8525 -36.6875 -88.375h-125
c0 69.0439 24.458 127.992 73.375 176.844c47.1914 47.2305 106.077 70.8369 176.656 70.8203s129.496 -23.6445 176.75 -70.8828c48.8125 -48.748 73.2188 -107.676 73.2188 -176.781c0 -69.0322 -24.417 -127.949 -73.25 -176.75l-208.969 -209
c-6.07812 -6.10938 -9.11719 -13.4736 -9.11719 -22.0938s3.03906 -15.9844 9.11719 -22.0938c6.10938 -6.10938 13.4736 -9.16406 22.0938 -9.16406s15.9844 3.05469 22.0938 9.16406c6.10449 6.10449 9.15625 13.4688 9.15625 22.0938h125
c0 -43.125 -15.2607 -79.9482 -45.7812 -110.469s-67.3438 -45.7812 -110.469 -45.7812v0z" />
    <glyph glyph-name="at" unicode="@" 
d="M947.625 50h-182.625c-40.7812 0 -75.4375 21 -98.1562 51.2812c-42.2188 -32.4688 -94.4688 -52.625 -151.844 -52.625c-138.062 0 -250 111.938 -250 250s111.938 250 250 250h250v-373.656h101.188l1 -1.46875c14.2812 39.5625 22.8125 82.0312 22.8125 126.469
c0 206.781 -168.219 375 -375 375s-375 -168.219 -375 -375s168.219 -375 375 -375c103.406 0 197.156 42 265 110l88.5 -88.5c-90.4375 -90.5938 -215.438 -146.5 -353.5 -146.5c-276.125 0 -500 223.875 -500 500s223.875 500 500 500s500 -223.875 500 -500
c0 -91.3125 -24.5312 -176.406 -67.375 -250zM640 362.25v61.4062h-125c-68.8438 0 -125 -56.0312 -125 -125s56.1562 -125 125 -125s125 56.0312 125 125v63.5938z" />
    <glyph glyph-name="paragraph" unicode="&#xb6;" horiz-adv-x="780" 
d="M765 800v-125h-125v-875h-125v875h-125v-875h-125v500c-138.062 0 -250 111.938 -250 250s111.938 250 250 250h125h125h125h125z" />
    <glyph glyph-name="glyph4" unicode="&#x2139;" horiz-adv-x="530" 
d="M77.5 300h-62.5v125h375l0.25 -437.5c0 -34.5312 28.0625 -62.5 62.5 -62.5h62.25v-125h-500v125h62.5c34.5312 0 62.5 27.9688 62.5 62.5v250c0 34.5312 -27.9688 62.5 -62.5 62.5zM140 675c0 83.333 41.667 125 125 125s125 -41.667 125 -125s-41.667 -125 -125 -125
s-125 41.667 -125 125z" />
    <glyph glyph-name="glyph5" unicode="&#x2190;" 
d="M514.5 -200l-499.5 500l499.5 500l177.25 -177.281l-197.25 -197.5h520.5v-250.719h-520.5l197.25 -197.25z" />
    <glyph glyph-name="glyph6" unicode="&#x2191;" 
d="M15 300.5l500.062 499.5l499.938 -499.5l-177.281 -177.25l-197.438 197.5v-520.75h-250.719v520.75c-97.875 -97.875 -197.312 -197.25 -197.312 -197.25z" />
    <glyph glyph-name="glyph7" unicode="&#x2192;" 
d="M515.5 800l499.5 -500l-499.5 -500l-177.25 177.281l197.375 197.375h-520.625v250.844h520.625l-197.25 197.25z" />
    <glyph glyph-name="glyph8" unicode="&#x2193;" 
d="M1015 299.5l-500 -499.5l-500 499.5l177.281 177.25l197.5 -197.5v520.75h250.719v-520.75l197.25 197.25z" />
    <glyph glyph-name="glyph9" unicode="&#x2302;" 
d="M515 800l500 -500h-125v-500h-750v500h-125zM765 -75v448.25l-250 176.75l-250 -176.75v-448.25h187.5v187.5h125v-187.5h187.5z" />
    <glyph glyph-name="glyph10" unicode="&#x2600;" 
d="M515 550v0c137.938 0 249.938 -111.938 249.938 -250s-112 -250 -249.938 -250c-138.188 0 -250 111.938 -250 250s111.812 250 250 250zM577.5 737.5c0 -34.5312 -28.0625 -62.5 -62.5 -62.5c-34.6562 0 -62.5 27.9688 -62.5 62.5s27.8438 62.5 62.5 62.5
c34.4375 0 62.5 -27.9688 62.5 -62.5zM140 612.5c0 41.667 20.833 62.5 62.5 62.5s62.5 -20.833 62.5 -62.5s-20.833 -62.5 -62.5 -62.5s-62.5 20.833 -62.5 62.5zM77.5 362.562c34.4375 0 62.5 -27.9688 62.5 -62.5c0 -34.5938 -28.0625 -62.5 -62.5 -62.5
c-34.6562 0 -62.5 27.9062 -62.5 62.5c0 34.5312 27.8438 62.5 62.5 62.5zM140 -12.5c0 41.667 20.833 62.5 62.5 62.5s62.5 -20.833 62.5 -62.5s-20.833 -62.5 -62.5 -62.5s-62.5 20.833 -62.5 62.5zM452.5 -137.5c0 34.6562 27.8438 62.5 62.5 62.5
s62.5 -27.8438 62.5 -62.5c0 -34.5312 -27.8438 -62.5 -62.5 -62.5s-62.5 27.9688 -62.5 62.5zM783.5 -56.6875c-24.4062 24.4062 -24.4062 63.9688 0 88.375s63.9688 24.4062 88.375 0c24.6562 -24.4062 24.6562 -63.9688 0 -88.375
c-24.4062 -24.4062 -63.9688 -24.4062 -88.375 0zM952.438 237.562c-34.4375 0 -62.5 27.9688 -62.5 62.4375c0 34.6562 28.0625 62.5 62.75 62.5c34.4375 0 62.5 -27.9062 62.25 -62.4375c0.25 -34.5938 -27.8438 -62.5625 -62.5 -62.5zM871.875 568.25
c-24.4062 -24.3438 -63.9688 -24.3438 -88.375 0c-24.4062 24.5312 -24.4062 63.9688 0 88.4375c24.4062 24.3438 63.9688 24.4062 88.375 -0.0625c24.6562 -24.4062 24.6562 -64.0312 0 -88.375z" />
    <glyph glyph-name="glyph11" unicode="&#x2601;" 
d="M765 675c137.812 0 250 -112.125 250 -250c0 -137.938 -112.188 -250 -250 -250h-500c-137.812 0 -250 112.062 -250 250c0 137.875 112.188 250 250 250c11.0938 0 22.0938 -1.65625 33.0938 -3.125c42.9688 76.0625 123.531 128.125 216.906 128.125
c91.4375 0 172 -51.4375 215.562 -128.469c11.375 1.5625 22.5938 3.46875 34.4375 3.46875zM765 300c68.9688 0 125 56.1562 125 125c0 68.9062 -56.0312 125 -125 125s-125 -56.0938 -125 -125h-125c0 81.4062 39.6875 153.125 99.9688 198.781
c-22.9375 31.1875 -59.5625 51.2188 -99.9688 51.2188c-68.9688 0 -125 -56.0938 -125 -125c0 -15.0625 2.5625 -29.7812 7.8125 -43.6562l-117.062 -43.8125c-10.25 27.3438 -15.375 56.2812 -15.625 85.75c-64.4688 -1.875 -125.125 -54.75 -125.125 -123.281
c0 -68.8438 56.0312 -125 125 -125h500z" />
    <glyph glyph-name="glyph12" unicode="&#x2602;" 
d="M515 800c275.812 0 499.938 -224.312 499.938 -500h-125c0 25.8125 -21 46.875 -46.875 46.875c-25.625 0 -46.875 -21.0625 -46.875 -46.875h-125c0 25.8125 -20.9375 46.875 -46.8125 46.875c-25.75 0 -46.875 -21.0625 -46.875 -46.875v-312.5
c0 -103.406 -84 -187.5 -187.5 -187.5c-103.281 0 -187.5 84.0938 -187.5 187.5h125c0 -34.4375 28.0625 -62.5 62.5 -62.5c34.5312 0 62.5 28.0625 62.5 62.5v312.5c0 25.8125 -21 46.875 -46.875 46.875c-25.75 0 -46.875 -21.0625 -46.875 -46.875h-125
c0 25.8125 -21 46.875 -46.875 46.875c-25.75 0 -46.875 -21.0625 -46.875 -46.875h-125c0 275.688 224.375 500 500 500z" />
    <glyph glyph-name="glyph13" unicode="&#x2605;" 
d="M706.781 186.719l120.969 -386.719l-312.25 240l-313 -240l121.094 387.688l-308.594 237.312h375l125 375l125 -375h375z" />
    <glyph glyph-name="glyph14" unicode="&#x263e;" 
d="M784.781 106.75c84.2188 0 162.094 24.1875 230.219 63.375c-61.5 -213.156 -255.969 -370.125 -489 -370.125c-282.25 0 -511 228.875 -511 511.094c0 233.031 156.875 427.375 370.125 488.875c-39.3125 -67.9688 -63.4688 -145.875 -63.4688 -230.094
c0 -255.719 207.25 -463.125 463.125 -463.125z" />
    <glyph glyph-name="glyph15" unicode="&#x2764;" 
d="M515 679.875c50.4062 70.8125 129.031 120.125 222.281 120.125c153.219 0 277.719 -124.75 277.719 -277.844v-22.9375l-499.75 -574.219l-500.25 574.219v22.9375c0 153.094 124.5 277.844 277.719 277.844c93.25 0 171.875 -49.3125 222.281 -120.125z" />
    <glyph glyph-name="glyph16" unicode="&#x2699;" 
d="M1015 238.469l-149.438 -63.7188c-4.15625 -11.5938 -8.4375 -22.9688 -13.6875 -34.1875l61.5312 -149.156l-88.375 -88.375l-149.906 60.0625c-11.2188 -5.375 -22.9375 -10 -34.7812 -14.4062l-61.875 -148.688h-125l-63.2188 147.938
c-12.4375 4.28125 -24.5312 8.78125 -36.375 14.4062l-147.594 -60.7812l-88.375 88.375l59.4375 148.188c-5.84375 12.0938 -10.7188 24.4375 -15.25 37.125l-147.094 61.2812v125l146.969 62.8438c4.53125 12.7188 9.28125 25.0312 15.1562 37.125l-60.5625 147.219
l88.375 88.375l148.562 -59.6875c11.8438 5.625 23.8125 10.25 36.25 14.6562l61.7812 147.938h125l63.3438 -148.438c11.9688 -4.28125 23.5625 -8.90625 34.9062 -14.4062l148.812 61.2812l88.4062 -88.375l-60.3125 -150.156
c5.375 -11.125 9.75 -22.4688 13.9062 -34.1875l149.406 -62.25v-125zM514.031 112.5c103.5 0 187.5 84 187.5 187.5s-84 187.5 -187.5 187.5s-187.5 -84 -187.5 -187.5s84 -187.5 187.5 -187.5z" />
    <glyph glyph-name="glyph17" unicode="&#x26a1;" 
d="M1015 800l-437.5 -500l187.5 -125l-750 -375l437.5 375l-187.5 125z" />
    <glyph glyph-name="glyph18" unicode="&#x26bf;" 
d="M702.5 800c172.594 0 312.5 -139.906 312.5 -312.5s-139.906 -312.5 -312.5 -312.5c-19.5312 0 -38.3438 2.3125 -56.75 5.75l-5.75 -5.75v-125h-125v-125h-125v-125h-375v250l380.75 380.75c-3.4375 18.4062 -5.75 37.2188 -5.75 56.75
c0 172.594 139.906 312.5 312.5 312.5zM702.75 425c34.5312 0 62.5 27.9688 62.5 62.5s-27.9688 62.5 -62.5 62.5s-62.5 -27.9688 -62.5 -62.5s27.9688 -62.5 62.5 -62.5z" />
    <glyph glyph-name="glyph19" unicode="&#x26c6;" 
d="M765 674.992c137.946 0 250.016 -112.132 250.016 -250.016s-112.069 -250.016 -250.016 -250.016h-499.969c-137.821 0 -250.016 112.132 -250.016 250.016s112.194 250.016 250.016 250.016c11.0947 0 22.0947 -1.65625 33.0957 -3.125
c42.9717 76.0674 123.539 128.133 216.92 128.133c91.4434 0 172.073 -51.4404 215.514 -128.477c11.5 1.5625 22.7197 3.46875 34.4395 3.46875zM765 299.969c69.0977 0 125.008 56.0977 125.008 125.008s-55.9102 125.008 -125.008 125.008
c-68.8477 0 -124.945 -56.0977 -124.945 -125.008h-125.008c0 81.4111 39.6904 153.135 99.9746 198.794c-22.9385 31.1895 -59.5654 51.2217 -99.9746 51.2217c-68.9727 0 -125.008 -56.0977 -125.008 -125.008c0 -15.0635 2.5625 -29.7832 7.8125 -43.6592
l-117.069 -43.8154c-10.251 27.3457 -15.376 56.2852 -15.626 85.7559c-64.4727 -1.875 -125.133 -54.7539 -125.133 -123.289c0 -68.9102 56.0352 -125.008 125.008 -125.008h499.969zM117.554 -57.4912c-23.4395 -23.4385 -61.5352 -23.4385 -84.9746 0
c-23.4385 23.4395 -23.4385 61.5352 0 84.9746c23.4395 23.4385 169.948 84.9736 169.948 84.9736s-61.5352 -146.509 -84.9736 -169.948zM367.694 -57.4912c-23.4395 -23.4385 -61.4102 -23.4385 -84.9746 0c-23.4385 23.4395 -23.4385 61.5352 0 84.9746
c23.5645 23.4385 169.948 84.9736 169.948 84.9736s-61.4102 -146.509 -84.9736 -169.948zM617.585 -57.4912c-23.4395 -23.4385 -61.5352 -23.4385 -84.9746 0c-23.4385 23.4395 -23.4385 61.5352 0 84.9746c23.4395 23.4385 169.886 84.9736 169.886 84.9736
s-61.4727 -146.509 -84.9111 -169.948z" />
    <glyph glyph-name="glyph20" unicode="&#x26d4;" 
d="M515 800c276.125 0 500 -223.875 500 -500s-223.875 -500 -500 -500s-500 223.875 -500 500s223.875 500 500 500zM515 675c-206.781 0 -375 -168.219 -375 -375c0 -80.8125 26.25 -155.281 69.9375 -216.562l521.75 521.5
c-61.2812 43.6875 -135.75 70.0625 -216.688 70.0625zM515 -75c206.781 0 375 168.219 375 375c0 80.8125 -26.25 155.281 -69.9375 216.562l-521.75 -521.5c61.2812 -43.6875 135.75 -70.0625 216.688 -70.0625z" />
    <glyph glyph-name="glyph21" unicode="&#x2709;" 
d="M517.438 441.969l-502.438 235.969v122.062h1000v-122.438zM517.688 303.781l497.312 235.469v-489.25h-1000v490z" />
    <glyph glyph-name="glyph22" unicode="&#x270e;" 
d="M941.75 726.75c97.6562 -97.6562 97.6562 -255.844 0 -353.5l-573.25 -573.25h-353.5l0.96875 354.5l572.281 572.25c48.8125 48.8438 112.781 73.25 176.75 73.25c64.0938 0 128.062 -24.4062 176.75 -73.25zM316.75 -75l536.625 536.625v0l-176.75 176.75v0
l-535.781 -535.875l-0.125 -52.5h124.281v-125h51.75z" />
    <glyph glyph-name="glyph23" unicode="&#x2713;" 
d="M388.156 -4.8125l-373.156 373.188l177.969 177.969l195.188 -195.188l448.875 448.844l177.969 -177.969z" />
    <glyph glyph-name="glyph24" unicode="&#x2714;" 
d="M515 800c276.125 0 500 -223.875 500 -500s-223.875 -500 -500 -500s-500 223.875 -500 500s223.875 500 500 500zM437.5 69.2812l388.875 388.906l-88.375 88.375l-300.531 -300.531l-141.656 141.719l-88.375 -88.375z" />
    <glyph glyph-name="glyph25" unicode="&#x2717;" 
d="M1015 0.0712891l-200.071 -200.071l-299.929 300.071l-300.071 -300.071l-199.929 200.071l299.929 299.929l-299.929 299.929l199.929 200.071l300.071 -300.071l299.929 300.071l200.071 -200.071l-300.214 -299.929z" />
    <glyph glyph-name="glyph26" unicode="&#x2718;" 
d="M515 800c276.125 0 500 -223.875 500 -500s-223.875 -500 -500 -500s-500 223.875 -500 500s223.875 500 500 500zM762.312 141.062l-158.938 158.938l158.938 158.938l-88.375 88.375l-158.938 -158.938l-158.938 158.938l-88.375 -88.375l158.938 -158.938
l-158.938 -158.938l88.375 -88.375l158.938 158.938l158.938 -158.938z" />
    <glyph glyph-name="glyph27" unicode="&#x275d;" 
d="M1015 50h-375v375c0 206.781 168.219 375 375 375v-125c-137.938 0 -250 -112.188 -250 -250h250v-375zM390 50h-375v375c0 206.781 168.219 375 375 375v-125c-137.938 0 -250 -112.188 -250 -250h250v-375z" />
    <glyph glyph-name="glyph28" unicode="&#x275e;" 
d="M15 800h375v-375c0 -206.781 -168.219 -375 -375 -375v125c137.938 0 250 112.188 250 250h-250v375zM640 800h375v-375c0 -206.781 -168.219 -375 -375 -375v125c137.938 0 250 112.188 250 250h-250v375z" />
    <glyph glyph-name="glyph29" unicode="&#x2795;" 
d="M1015 425v-250h-375v-375h-250v375h-375v250h375v375h250v-375h375z" />
    <glyph glyph-name="glyph30" unicode="&#x2796;" 
d="M15 550v250h1000v-250h-1000z" />
    <glyph glyph-name="glyph31" unicode="&#x2935;" 
d="M890 362.5v-62.5h125l-250 -250l-250 250h125v62.5c0 172.594 -139.906 312.5 -312.5 312.5s-312.5 -139.906 -312.5 -312.5c0 241.562 195.938 437.5 437.5 437.5s437.5 -195.938 437.5 -437.5z" />
    <glyph glyph-name="glyph32" unicode="&#xe000;" horiz-adv-x="780" 
d="M452.5 800l312.5 -312.438v-687.562h-750v1000h437.5zM387.438 425h250l-250 250v-250z" />
    <glyph glyph-name="glyph33" unicode="&#xe001;" 
d="M762.438 675h252.562v-125h-252.562h-125h-250h-125h-247.438v125h247.438v125h125v-125h250v125h125v-125zM140 50v125h750v-125h-750zM140 300v125h750v-125h-750zM765 -200h-625v125h750z" />
    <glyph glyph-name="glyph34" unicode="&#xe002;" horiz-adv-x="530" 
d="M265 800c138.062 0 250 -111.938 250 -250s-250 -750 -250 -750s-250 611.938 -250 750s111.938 250 250 250zM265 425c69.0312 0 125 55.9688 125 125s-55.9688 125 -125 125s-125 -55.9688 -125 -125s55.9688 -125 125 -125z" />
    <glyph glyph-name="glyph35" unicode="&#xe003;" 
d="M950.532 175h-497.938c-187.375 0 -187.375 0 -312.375 -125c-124.875 125 -324.219 750 374.875 750c250 0 499.906 -62.5 499.906 -375c0 -125 -64.4688 -250 -64.4688 -250z" />
    <glyph glyph-name="glyph36" unicode="&#xe004;" horiz-adv-x="905" 
d="M452.5 800c241.562 0 437.5 -195.938 437.5 -437.5s-195.938 -437.5 -437.5 -437.5c-35.6562 0 -69.8125 5.375 -103.031 13.5625l-209.469 -138.562l1.34375 255.375c-78 79.0938 -126.344 187.375 -126.344 307.125c0 241.562 195.938 437.5 437.5 437.5z" />
    <glyph glyph-name="glyph37" unicode="&#xe005;" 
d="M941.75 726.75c97.6562 -97.6562 97.6562 -255.844 0 -353.5l-573.25 -573.25h-353.5l0.96875 354.5l572.281 572.25c97.5312 97.6562 255.969 97.6562 353.5 0zM315.406 -75c48.8438 48.8125 48.8125 128.938 0 177.75s-127.938 48.8125 -176.75 0v-177.75h176.75z
M851.062 461.625c48.8125 48.8125 48.8125 127.938 0 176.75s-127.938 48.8125 -176.75 0z" />
    <glyph glyph-name="glyph38" unicode="&#xe006;" 
d="M978.345 763.376c48.8428 -48.8105 48.8428 -127.934 0 -176.744l-472.642 -472.798c-10.9678 41.249 -31.499 80.5596 -63.7168 112.777c-31.7178 31.749 -70.7783 52.9678 -113.027 63.9668l472.642 472.798c48.8105 48.8115 127.934 48.8115 176.744 0z
M353.614 -38.5049l-338.614 -161.495l161.87 338.239c48.8105 48.8115 127.934 48.8115 176.744 0c48.8115 -48.8105 48.8115 -127.934 0 -176.744z" />
    <glyph glyph-name="glyph39" unicode="&#xe007;" 
d="M764.875 425c0 -138.062 -111.812 -250 -249.875 -250c0 68.9688 -56.0312 125 -125 125h-125.125c-124.875 0 -249.875 70.3125 -249.875 250c0 183.594 125 250 249.875 250h250.125c125 0 249.875 -77.4688 249.875 -250v-125zM390 425zM390 425zM826.875 418.344
c101.094 -19.5938 188.125 -90.4375 188.125 -243.344c0 -179.688 -125 -250 -250.125 -250h-124.875c-68.9688 0 -125 -55.9062 -125 -125c-138.062 0 -250.125 111.938 -250.125 250v125c0 22.4688 2.4375 43.1562 6.34375 62.5h118.781c34.4375 0 62.5 -28 62.5 -62.5
v-62.5h62.5c169.938 0 308.219 136.719 311.875 305.844z" />
    <glyph glyph-name="glyph40" unicode="&#xe008;" 
d="M515 800c276.125 0 500 -223.875 500 -500s-223.875 -500 -500 -500s-500 223.875 -500 500s223.875 500 500 500zM765 237.5v125h-187.5v187.5h-125v-187.5h-187.5v-125h187.5v-187.5h125v187.5h187.5z" />
    <glyph glyph-name="glyph41" unicode="&#xe009;" 
d="M515 800c276.125 0 500 -223.875 500 -500s-223.875 -500 -500 -500s-500 223.875 -500 500s223.875 500 500 500zM765 237.5v125h-500v-125h500z" />
    <glyph glyph-name="glyph42" unicode="&#xe00a;" horiz-adv-x="905" 
d="M765 -200v1000h125v-1000h-125zM515 -200v750h125v-750h-125zM265 -200v500h125v-500h-125zM15 -200v250h125v-250h-125z" />
    <glyph glyph-name="glyph43" unicode="&#xe00b;" 
d="M389.625 424.031v125.969h249.75v-125.969h-249.75zM889.156 548.531l124.875 -125h-124.875v-623.531h-749.281c-68.9688 0 -124.875 55.9062 -124.875 125v750c0 69.0938 55.9062 125 124.875 125h749.281v-125.5h125.844zM764.281 -75h-0.03125v750h-499.5v-750
h499.531z" />
    <glyph glyph-name="glyph44" unicode="&#xe00c;" 
d="M962.156 519.594c32.8125 -66.5312 52.8438 -140.438 52.8438 -219.594c0 -31.5 -3.65625 -62 -9.28125 -92.0625h-355.219zM672.969 323.75v448.281c104.969 -35.1562 195.312 -102.094 256.344 -192.062zM538.375 142.031h448.656
c-35.1562 -105.094 -102.156 -195.562 -192.25 -256.469zM606.969 433l-313.219 313.219c66.9375 33.3438 141.406 53.7812 221.25 53.7812c31.5 0 62.0625 -3.71875 91.9688 -9.28125v-357.719zM423.031 164l311.344 -311.25
c-66.5312 -32.7188 -140.281 -52.75 -219.375 -52.75c-31.5 0 -62.0625 3.65625 -91.9688 9.25v354.75zM356.969 275.844v-447.906c-104.844 35.1562 -195.125 102.062 -256.031 191.906zM24.2812 391.969v0.03125h355.531l-311.844 -311.844
c-32.8125 66.5312 -52.9688 140.5 -52.9688 219.844c0 31.5 3.71875 62.0625 9.28125 91.9688zM233.625 713.094l255.094 -255.062h-445.75c34.9688 104.344 101.438 194.156 190.656 255.062z" />
    <glyph glyph-name="glyph45" unicode="&#xe010;" horiz-adv-x="530" 
d="M265.969 518.75c0 20.1875 10.0938 30.2812 30.2812 30.2812s30.2812 -10.0938 30.2812 -30.2812s-10.0938 -30.2812 -30.2812 -30.2812s-30.2812 10.0938 -30.2812 30.2812zM452.5 800c17 0 31.667 -6.16699 44 -18.5s18.5 -27 18.5 -44v-687.5
c0 -69.333 -24.333 -128.333 -73 -177s-107.667 -73 -177 -73s-128.333 24.333 -177 73s-73 107.667 -73 177v687.5c0 17 6.16699 31.667 18.5 44s27 18.5 44 18.5h375zM172.219 175c8.35938 0 15.4961 2.95703 21.4102 8.87109s8.87109 13.0508 8.87109 21.4102
s-2.95703 15.4961 -8.87109 21.4102s-13.0508 8.87109 -21.4102 8.87109s-15.4961 -2.95703 -21.4102 -8.87109s-8.87109 -13.0508 -8.87109 -21.4102s2.95703 -15.4961 8.87109 -21.4102s13.0508 -8.87109 21.4102 -8.87109zM327.5 50c17 0 31.667 6.16699 44 18.5
s18.5 27 18.5 44s-6.16699 31.667 -18.5 44s-27 18.5 -44 18.5s-31.667 -6.16699 -44 -18.5s-18.5 -27 -18.5 -44s6.16699 -31.667 18.5 -44s27 -18.5 44 -18.5zM390 300v375h-250v-375h62.7812c0.234375 17.2881 6.50391 32.0273 18.8066 44.2158
c12.3027 12.1895 27.1064 18.2842 44.4121 18.2842c17.3018 0 32.1016 -6.09375 44.3984 -18.2812c12.2988 -12.1875 18.5723 -26.9268 18.8203 -44.2188h60.7812z" />
    <glyph glyph-name="glyph46" unicode="&#xe011;" 
d="M1015 50h-375v375l375 375v-750zM390 50h-375v375l375 375v-750z" />
    <glyph glyph-name="glyph47" unicode="&#xe012;" 
d="M15 800h375v-375l-375 -375v750zM640 800h375v-375l-375 -375v750z" />
    <glyph glyph-name="glyph48" unicode="&#xe013;" 
d="M515 -200c-276.125 0 -500 223.875 -500 499.938c0 276.188 223.875 500.062 500 500.062s500 -223.875 500 -500.062c0 -276.062 -223.875 -499.938 -500 -499.938zM514.031 550l-249.031 -250.062l249.031 -248.969v186.531h250.969v124.938h-250.969v187.562z" />
    <glyph glyph-name="glyph49" unicode="&#xe014;" 
d="M15 300c0 276.188 223.875 500 500.125 500c276 0 499.875 -223.812 499.875 -500c0 -276.125 -223.875 -500 -499.875 -500c-276.25 0 -500.125 223.875 -500.125 500zM765 300.969l-249.875 249.094l-249.156 -249.094h186.531v-250.969h125v250.969h187.5z" />
    <glyph glyph-name="glyph50" unicode="&#xe015;" 
d="M515 800c276.125 0 500 -223.875 500 -500s-223.875 -500 -500 -500s-500 223.875 -500 500s223.875 500 500 500zM515.969 50l249.031 250l-249.031 249.031v-186.531h-250.969v-125h250.969v-187.5z" />
    <glyph glyph-name="glyph51" unicode="&#xe016;" 
d="M1015 300.062c0 -276.188 -223.875 -500.062 -500 -500.062s-500 223.875 -500 500.062c0 276.062 223.875 499.938 500 499.938s500 -223.875 500 -499.938zM265 299.094l250 -249.094l249.031 249.094h-186.531v250.906h-125v-250.906h-187.5z" />
    <glyph glyph-name="glyph52" unicode="&#xe017;" 
d="M515 -200c-276.125 0 -500 223.875 -500 500s223.875 500 500 500s500 -223.875 500 -500s-223.875 -500 -500 -500zM327.5 425l-125 -125l125 -125v62.5h500v125h-500v62.5z" />
    <glyph glyph-name="glyph53" unicode="&#xe018;" 
d="M1015 300c0 -276.125 -223.875 -500 -500 -500s-500 223.875 -500 500s223.875 500 500 500s500 -223.875 500 -500zM390 112.5l125 -125l125 125h-62.5v500h-125v-500h-62.5z" />
    <glyph glyph-name="glyph54" unicode="&#xe019;" 
d="M515 800c276.125 0 500 -223.875 500 -500s-223.875 -500 -500 -500s-500 223.875 -500 500s223.875 500 500 500zM702.5 175l125 125l-125 125v-62.5h-500v-125h500v-62.5z" />
    <glyph glyph-name="glyph55" unicode="&#xe01a;" 
d="M15 300c0 276.125 223.875 500 500 500s500 -223.875 500 -500s-223.875 -500 -500 -500s-500 223.875 -500 500zM640 487.5l-125 125l-125 -125h62.5v-500h125v500h62.5z" />
    <glyph glyph-name="glyph56" unicode="&#xe01b;" 
d="M514.875 133.375h0.125c0 -184.094 -149.281 -333.375 -333.375 -333.375c-60.5312 0 -117.188 16.125 -166.125 44.1875l-0.5 0.625c99.5 57.5938 166.5 165.156 166.625 288.438l-0.125 0.125c0 92.0312 74.5938 166.625 166.625 166.625
s166.75 -74.5938 166.75 -166.625zM978.312 763.375c48.8438 -48.8125 48.8438 -127.938 0 -176.75l-356.25 -356.312c-29.2812 82.5 -94.2188 147.469 -176.75 176.875l356.25 356.188c48.8125 48.8125 127.938 48.8125 176.75 0z" />
    <glyph glyph-name="glyph57" unicode="&#xe01c;" 
d="M390 50v0c0 -138.062 -111.938 -250 -250 -250c-45.4062 0 -87.875 12.0938 -124.5 33.1875l-0.5 0.375c74.7188 43.2188 125 123.781 125 216.188v0.25c0 69.0938 55.9062 125 125 125c68.9688 0 125 -55.9062 125 -125zM978.312 763.375
c48.8438 -48.8125 48.8438 -127.938 0 -176.75l-472.594 -472.781c-22.9375 86.3125 -90.5625 153.812 -176.75 176.875l472.594 472.656c48.8125 48.8125 127.938 48.8125 176.75 0z" />
    <glyph glyph-name="glyph58" unicode="&#xe01e;" 
d="M941.719 372.375l-18.4375 -18.4375l89.9688 -89.9062l-88.25 -88.125l-89.8438 89.9062l-465.656 -465.812h-231.688l-122.812 124.75v226.5l467.312 467.594l-93.0312 92.9688l88.125 88.1875l92.9375 -93.0312l18.4375 18.4375
c48.6875 48.7188 112.656 73.125 176.438 73.125c63.8438 0 127.781 -24.4062 176.5 -73.125c97.5312 -97.4062 97.5312 -255.562 0 -353.031zM337.5 -55.2188l409.406 409.406l-176.344 176.219l-403.719 -403.844c43.4688 -1.46875 86.6562 -17.7188 119.75 -50.9062
c36 -36.0312 52.375 -83.5 50.9062 -130.875z" />
    <glyph glyph-name="glyph59" unicode="&#xe01f;" 
d="M15 174.961l500.031 -125.008l499.969 125.008v-125.008l-499.969 -125.008l-500.031 125.008v125.008zM15 424.977l500.031 -125.008l499.969 125.008v-125.008l-499.969 -125.008l-500.031 125.008v125.008zM15 674.992l500.031 125.008l499.969 -125.008v-125.008
l-499.969 -125.008l-500.031 125.008v125.008z" />
    <glyph glyph-name="glyph60" unicode="&#xe020;" 
d="M15 50l500 -125l499.938 125v-125l-499.938 -125l-500 125v125zM15 300l500 -125l499.938 125v-125l-499.938 -125l-500 125v125zM15 550l500 -125l499.938 125v-125l-499.938 -125l-500 125v125zM15 800l500 -125l499.938 125v-125l-499.938 -125l-500 125v125z" />
    <glyph glyph-name="glyph61" unicode="&#xe021;" 
d="M515 675c-206.781 0 -375 -168.219 -375 -375s168.219 -375 375 -375s375 168.219 375 375s-168.219 375 -375 375zM515 800v0c276.125 0 500 -223.875 500 -500s-223.875 -500 -500 -500s-500 223.875 -500 500s223.875 500 500 500zM581.406 366.281
c-24.0625 24.0625 -57.625 30.7188 -88.375 23.125l271.969 160.594l-161.125 -275.688c9.03125 31.6562 2.4375 67 -22.4688 91.9688zM448.844 233.719c25.0312 -25.0312 60.4062 -31.625 92.1562 -22.4688l-276 -161.25l160.656 272.344
c-7.5625 -30.8125 -0.96875 -64.5312 23.1875 -88.625z" />
    <glyph glyph-name="glyph62" unicode="&#xe022;" horiz-adv-x="530" 
d="M265 175c44.0625 0 85.6875 9.03125 125 23v-398l-125 125l-125 -125v398c39.3125 -13.9688 80.9375 -23 125 -23zM15 550c0 166.667 83.333 250 250 250s250 -83.333 250 -250s-83.333 -250 -250 -250s-250 83.333 -250 250z" />
    <glyph glyph-name="glyph63" unicode="&#xe023;" horiz-adv-x="530" 
d="M452.5 800c34.5312 0 62.5 -27.9688 62.5 -62.5v-687.5c0 -138.062 -111.938 -250 -250 -250s-250 111.938 -250 250v687.5c0 34.5312 27.9688 62.5 62.5 62.5h375zM327.5 50c34.5312 0 62.5 27.9688 62.5 62.5s-27.9688 62.5 -62.5 62.5s-62.5 -27.9688 -62.5 -62.5
s27.9688 -62.5 62.5 -62.5zM390 300v375h-250v-375h62.7812c0.46875 34.5312 28.5625 62.5 63.2188 62.5s62.7188 -27.9688 63.2188 -62.5h60.7812z" />
    <glyph glyph-name="glyph64" unicode="&#xe024;" 
d="M515 800c276.125 0 500 -223.875 500 -500s-223.875 -500 -500 -500s-500 223.875 -500 500s223.875 500 500 500zM515 675c-162.719 0 -300.156 -104.812 -352.062 -250h704.125c-51.9062 145.188 -189.344 250 -352.062 250zM515 237.5
c34.5312 0 62.5 27.9688 62.5 62.5s-27.9688 62.5 -62.5 62.5s-62.5 -27.9688 -62.5 -62.5s27.9688 -62.5 62.5 -62.5zM140 300c0 -185.188 135.25 -338.375 312 -368.656c-2.90625 204.094 -141.219 368.656 -312 368.656zM578 -68.6562
c176.75 30.2812 312 183.469 312 368.656c-170.781 0 -309.094 -164.562 -312 -368.656z" />
    <glyph glyph-name="glyph65" unicode="&#xe025;" 
d="M515 800c276.125 0 500 -370.125 500 -370.125s-223.875 -379.875 -500 -379.875s-500 379.875 -500 379.875s223.875 370.125 500 370.125zM515 175c138.062 0 250 111.938 250 250s-111.938 250 -250 250s-250 -111.938 -250 -250s111.938 -250 250 -250zM390 424.5
c0 83.333 41.667 125 125 125s125 -41.667 125 -125s-41.667 -125 -125 -125s-125 41.667 -125 125z" />
    <glyph glyph-name="glyph66" unicode="&#xe026;" 
d="M676.625 363.125l-252.625 427.719c29.5938 5.4375 59.8125 9.15625 91 9.15625c131.594 0 250.25 -51.8125 339.469 -134.875zM638.531 175l260.125 442.031c71.6562 -86.5 116.344 -196 116.344 -317.031c0 -43.4688 -7.3125 -84.8438 -17.7188 -125h-358.75z
M530.625 487.5h-478.5c55.1562 136.062 168.875 240.406 309.5 286zM503.531 112.5h474.375c-54.6875 -134.875 -166.875 -238.531 -305.906 -284.906zM393.281 425l-260.906 -443.375c-72.2188 86.8125 -117.375 196.781 -117.375 318.375
c0 43.4688 7.25 84.8438 17.6875 125h360.594zM356.188 238.719l253.781 -429.188c-30.75 -5.875 -62.4375 -9.53125 -94.9688 -9.53125c-130.969 0 -249.156 51.5 -338.312 133.781z" />
    <glyph glyph-name="glyph67" unicode="&#xe027;" 
d="M265 50v250l125 125l125 -125l250 250l250 -250v-250h-750zM140 -75h875l-125 -125h-750h-125v125v750l125 125v-875z" />
    <glyph glyph-name="glyph68" unicode="&#xe028;" 
d="M444.398 193.812l-312.75 -312.5c-155.531 179.812 -155.531 445.188 0 625zM639.961 670.062c211.438 -31.4375 375 -210.156 374.969 -430.719c0 -242.812 -196.781 -439.344 -439.688 -439.344c-97.6562 0 -186.031 34.4375 -258.781 88.75l323.5 323.625v457.688z
M514.961 299.5l-358.656 358.719c99.375 81.2188 222.438 133.344 358.656 141.781v-500.5z" />
    <glyph glyph-name="glyph69" unicode="&#xe029;" horiz-adv-x="967" 
d="M469.148 193.062l-330.562 -330.562c-164.781 190.188 -164.781 470.938 0 661.125zM516.023 237.5l-403.062 403.062c111.562 91.3125 249.75 149.906 403.062 159.438v-562.5zM577.555 674.5c211.594 -32.4688 374.938 -211.656 374.938 -432.844
c0 -243.906 -197.75 -441.656 -442.062 -441.656c-96.9375 0 -184.594 33.6875 -257.344 87.1562l324.469 324.469v462.875z" />
    <glyph glyph-name="glyph70" unicode="&#xe02a;" 
d="M578.219 363.281v180.906c88.625 -22.875 157.969 -92.2812 180.906 -180.906h-180.906zM578.219 236.719h180.906c-22.9375 -88.5625 -92.2812 -158.031 -180.906 -180.844v180.844zM451.656 363.281h-180.906c22.8125 88.625 92.2812 158.031 180.906 180.906v-180.906
zM451.656 236.719v-180.844c-88.625 22.8125 -158.094 92.2812 -180.906 180.844h180.906zM578.219 673.344v126.656c228.531 -28.875 407.844 -208.25 436.781 -436.719h-126.719c-26.875 158.562 -151.5 283.219 -310.062 310.062zM141.594 363.281h-126.594
c28.8125 228.469 208.25 407.844 436.656 436.719v-126.656c-158.594 -26.8438 -283.219 -151.469 -310.062 -310.062zM451.656 -73.2812v-126.719c-228.406 28.8125 -407.844 208.25 -436.656 436.719h126.594c26.875 -158.625 151.5 -283.156 310.062 -310z
M888.281 236.719h126.719c-28.9375 -228.469 -208.25 -407.906 -436.781 -436.719v126.719c158.562 26.8438 283.219 151.375 310.062 310z" />
    <glyph glyph-name="glyph71" unicode="&#xe02b;" 
d="M429.906 800l585.094 -585.094h-415.031v-414.906l-584.969 585.094v414.906h414.906zM243.5 452.469c65.6875 0 118.906 53.2188 118.906 118.906s-53.2188 118.906 -118.906 118.906s-118.906 -53.2188 -118.906 -118.906s53.2188 -118.906 118.906 -118.906z" />
    <glyph glyph-name="glyph72" unicode="&#xe02c;" 
d="M15 -75c0 83.3545 41.6768 125.031 125.031 125.031s125.031 -41.6768 125.031 -125.031s-41.6768 -125.031 -125.031 -125.031s-125.031 41.6768 -125.031 125.031zM203.219 174.875v125.125c86.1514 0 159.783 -30.5771 220.895 -91.7305
c61.1123 -61.1543 91.668 -134.827 91.668 -221.02h-125.062c0 51.7588 -18.3223 95.9697 -54.9678 132.632s-80.8223 54.9932 -132.532 54.9932zM202.375 425v125c76.1846 0 149.002 -14.8789 218.452 -44.6367c69.4512 -29.7578 129.301 -69.7666 179.549 -120.026
c50.249 -50.2607 90.249 -110.123 119.998 -179.589c29.751 -69.4658 44.626 -142.298 44.626 -218.498h-125c0 59.2617 -11.5752 115.91 -34.7256 169.946c-23.1504 54.0371 -54.2705 100.604 -93.3623 139.701c-39.0908 39.0977 -85.6445 70.2227 -139.662 93.374
c-54.0166 23.1523 -110.642 34.7285 -169.875 34.7285zM202.375 675v125c110.043 0 215.219 -21.4854 315.528 -64.4551s186.752 -100.746 259.328 -173.328c72.5762 -72.583 130.349 -159.038 173.316 -259.367s64.4521 -205.528 64.4521 -315.6h-125
c0 93.1348 -18.1807 182.15 -54.543 267.049s-85.251 158.058 -146.665 219.479c-61.415 61.4199 -134.562 110.312 -219.439 146.677c-84.8789 36.3643 -173.871 54.5459 -266.978 54.5459z" />
    <glyph glyph-name="glyph73" unicode="&#xe02d;" 
d="M1015 -200h-142.812c0 472.656 -384.531 857.125 -857.188 857.125v142.875c551.281 0 1000 -448.594 1000 -1000v0zM729.219 -200h-142.812c0 315.062 -256.469 571.406 -571.406 571.406v142.875c393.812 0 714.219 -320.469 714.219 -714.281v0zM443.594 -200
h-142.938c0 157.594 -128.062 285.656 -285.656 285.656v142.938c236.312 0 428.594 -192.281 428.594 -428.594v0zM157.812 -200h-142.812v142.812c78.9688 0 142.812 -63.9688 142.812 -142.812z" />
    <glyph glyph-name="glyph74" unicode="&#xe02e;" 
d="M889.938 50c69.0938 0 125 -56.0312 125 -125s-55.9062 -125 -125 -125s-125 56.0312 -125 125c0 15.75 3.65625 30.5312 9.03125 44.4375l-189.281 135.125c-33.9062 -33.6875 -80.6875 -54.5625 -132.188 -54.5625c-103.5 0 -187.5 84 -187.5 187.5
c0 9.75 1.46875 19.1562 2.9375 28.5625l-149.656 49.9375c-11 -9.65625 -25.0312 -16 -40.7812 -16c-34.5312 0 -62.5 27.9688 -62.5 62.5s27.9688 62.5 62.5 62.5c29.9062 0 53.7188 -21.375 59.8125 -49.4375l150.5 -50.2812
c31.625 59.0625 93.1562 99.7188 164.688 99.7188c40.5312 0 77.625 -13.0625 108.406 -35.0312l222.844 223.031c-10.75 18.5312 -18.8125 38.9375 -18.8125 62c0 69.0938 55.9062 125 125 125s125 -55.9062 125 -125s-55.9062 -125 -125 -125
c-22.9375 0 -43.4688 7.9375 -62 18.8125l-222.844 -223.031c21.7188 -30.5312 34.9062 -67.875 34.9062 -108.281c0 -29.4062 -7.3125 -56.75 -19.4062 -81.6562l190.5 -136c21.7188 17.9375 48.5625 30.1562 78.8438 30.1562z" />
    <glyph glyph-name="glyph75" unicode="&#xe02f;" 
d="M894.82 683.788c77.4014 -77.4951 120.117 -180.52 120.117 -290.138s-42.7158 -212.643 -120.117 -290.325l-94.2441 -93.9941l-88.3701 88.3691l94.2441 94.1816c53.8408 53.9658 83.4951 125.492 83.4951 201.769c0 76.1826 -29.6543 147.709 -83.4951 201.519
c-107.649 107.899 -295.388 107.899 -403.037 0.125l-170.396 -170.396h156.959v-125.117h-374.977v375.227h124.992v-166.239l174.896 175.02c154.803 155.022 425.036 154.897 579.933 0zM503.074 -111.463l88.4443 88.3193l88.3643 -88.4883l-88.4453 -88.3203z" />
    <glyph glyph-name="glyph76" unicode="&#xe030;" horiz-adv-x="887" 
d="M729.286 228.571h142.856c0 -236.75 -191.964 -428.571 -428.571 -428.571s-428.571 191.821 -428.571 428.571s191.964 428.571 428.571 428.571h84.8213l-42.1426 41.8574l101 101l214.714 -214.286l-214.714 -214.964l-101 101l41.5713 41.5713l-84.25 0.964844
c-157.643 0 -285.714 -128.215 -285.714 -285.715s128.071 -285.714 285.714 -285.714s285.715 128.214 285.715 285.714z" />
    <glyph glyph-name="glyph77" unicode="&#xe031;" horiz-adv-x="887" 
d="M729.286 228.571h142.856c0 -236.607 -191.964 -428.571 -428.571 -428.571s-428.571 191.964 -428.571 428.571s191.964 428.571 428.571 428.571h143.679v142.857l214.714 -214.286l-214.714 -215v142.036l-143.679 1.53613
c-157.643 0 -285.714 -128.072 -285.714 -285.715s128.071 -285.714 285.714 -285.714s285.715 128.071 285.715 285.714z" />
    <glyph glyph-name="glyph78" unicode="&#xe032;" 
d="M827.5 425l187.5 -187.5h-125c0 -103.406 -84.0938 -187.5 -187.5 -187.5h-375c-103.406 0 -187.5 84.0938 -187.5 187.5v62.5h125v-62.5c0 -34.4375 28.0625 -62.5 62.5 -62.5h375c34.4375 0 62.5 28.0625 62.5 62.5h-125zM702.5 800
c103.406 0 187.5 -84.0938 187.5 -187.5v-62.5h-125v62.5c0 34.4375 -28.0625 62.5 -62.5 62.5h-375c-34.4375 0 -62.5 -28.0625 -62.5 -62.5v-1.9375h125l-187.5 -185.562l-187.5 185.562h125v1.9375c0 103.406 84.0938 187.5 187.5 187.5h375z" />
    <glyph glyph-name="glyph79" unicode="&#xe033;" 
d="M638.281 175l187.75 250l188.969 -250h-125v-62.5c0 -103.406 -84.0938 -187.5 -187.5 -187.5h-375c-103.406 0 -187.5 84.0938 -187.5 187.5v62.5h125v-62.5c0 -34.4375 28.0625 -62.5 62.5 -62.5h375c34.4375 0 62.5 28.0625 62.5 62.5v62.5h-126.719zM391.719 550
l-187.75 -250l-188.969 250h125v62.5c0 103.406 84.0938 187.5 187.5 187.5h375c103.406 0 187.5 -84.0938 187.5 -187.5v-62.5h-125v62.5c0 34.4375 -28.0625 62.5 -62.5 62.5h-375c-34.4375 0 -62.5 -28.0625 -62.5 -62.5v-62.5h126.719z" />
    <glyph glyph-name="glyph80" unicode="&#xe034;" 
d="M890 425h125v-62.5c0 -103.281 -84.0938 -187.5 -187.5 -187.5h-437.625l0.125 -125l-250 187.5l250 187.5l-0.125 -125h437.625c34.4375 0 62.5 28.0625 62.5 62.5v62.5zM140 487.5v-62.5h-125v62.5c0 103.5 84.0938 187.5 187.5 187.5h437.5v125l249.75 -187.5
l-249.75 -187.5v125h-437.5c-34.4375 0 -62.5 -27.9688 -62.5 -62.5z" />
    <glyph glyph-name="glyph81" unicode="&#xe035;" 
d="M890 362.5h125c0 -103.281 -84.0938 -187.5 -187.5 -187.5h-562.75v-125l-249.75 187.5l249.75 187.5v-125h562.75c34.4375 0 62.5 28.0625 62.5 62.5zM202.5 550c-34.4375 0 -62.5 -28.0625 -62.5 -62.5h-125c0 103.5 84.0938 187.5 187.5 187.5h562.5v125l250 -187.5
l-250 -187.5v125h-562.5z" />
    <glyph glyph-name="glyph82" unicode="&#xe036;" horiz-adv-x="905" 
d="M761.344 609.812c83 -82.75 128.656 -192.75 128.656 -309.812c0 -241.219 -196.281 -437.5 -437.5 -437.5v-62.5l-125 125l125 125v-62.5c172.375 0 312.5 140.125 312.5 312.5c0 83.625 -32.7188 162.219 -91.7812 221.312zM577.5 675l-125 -125v62.5
c-172.375 0 -312.5 -140.125 -312.5 -312.5c0 -83.625 32.7188 -162.219 91.7812 -221.312l-88.125 -88.5c-83 82.75 -128.656 192.75 -128.656 309.812c0 241.219 196.281 437.5 437.5 437.5v62.5z" />
    <glyph glyph-name="glyph83" unicode="&#xe037;" 
d="M161.594 -53.75c-94.5938 94.4688 -146.594 219.969 -146.594 353.75c0 275.625 224.25 500 500 500l62.5 -62.5l-62.5 -62.5c-206.781 0 -375 -168.219 -375 -375c0 -100.344 39.0625 -194.594 110 -265.375l-76.7812 -10l-11.625 -78.375v0zM515 -200l-62.5 62.25
l62.5 62.75c206.781 0 375 168.219 375 375c0 100.094 -39.0625 194.344 -110.094 265.25l76.9062 10.125l11.4688 78.25c94.5938 -94.4688 146.719 -220.094 146.719 -353.625c0 -275.625 -224.375 -500 -500 -500v0z" />
    <glyph glyph-name="glyph84" unicode="&#xe038;" 
d="M390 550h-187.5v-125l-187.5 187.5l187.5 187.5v-125h187.5v-125zM640 675h187.5v125l187.5 -187.5l-187.5 -187.5v125h-187.5v125z" />
    <glyph glyph-name="glyph85" unicode="&#xe039;" 
d="M327.5 612.5l62.5 -62.5h-187.5v-125l-187.5 187.5l187.5 187.5v-125h187.5zM700.562 612.5l-60.5625 62.5h187.5v125l187.5 -187.5l-187.5 -187.5v125h-187.5z" />
    <glyph glyph-name="glyph86" unicode="&#xe03a;" 
d="M1015 300c0 -276.125 -223.875 -500 -500 -500s-500 223.875 -500 500s223.875 500 500 500s500 -223.875 500 -500zM327.5 237.5h375v-62.5l125 125l-125 125v-62.5h-375v62.5l-125 -125l125 -125v62.5z" />
    <glyph glyph-name="glyph87" unicode="&#xe03b;" horiz-adv-x="405" 
d="M265 175v-187.5h125l-187.5 -187.5l-187.5 187.5h125v187.5h125zM140 425v187.5h-125l187.5 187.5l187.5 -187.5h-125v-187.5h-125z" />
    <glyph glyph-name="glyph88" unicode="&#xe03c;" horiz-adv-x="405" 
d="M202.5 112.5l62.5 62.5v-187.5h125l-187.5 -187.5l-187.5 187.5h125v187.5zM202.5 485.562l-62.5 -60.5625v187.5h-125l187.5 187.5l187.5 -187.5h-125v-187.5z" />
    <glyph glyph-name="glyph89" unicode="&#xe03d;" 
d="M515 800c276.125 0 500 -223.875 500 -500s-223.875 -500 -500 -500s-500 223.875 -500 500s223.875 500 500 500zM577.5 112.5v375h62.5l-125 125l-125 -125h62.5v-375h-62.5l125 -125l125 125h-62.5z" />
    <glyph glyph-name="glyph90" unicode="&#xe03e;" 
d="M577.5 175v-187.5h125l-187.5 -187.5l-187.5 187.5h125v187.5h125zM452.5 425v187.5h-125l187.5 187.5l187.5 -187.5h-125v-187.5h-125zM390 237.5h-187.5v-125l-187.5 187.5l187.5 187.5v-125h187.5v-125zM640 362.5h187.5v125l187.5 -187.5l-187.5 -187.5v125h-187.5
v125z" />
    <glyph glyph-name="glyph91" unicode="&#xe03f;" 
d="M515 112.5l62.5 62.5v-187.5h125l-187.5 -187.5l-187.5 187.5h125v187.5zM515 485.562l-62.5 -60.5625v187.5h-125l187.5 187.5l187.5 -187.5h-125v-187.5zM327.5 300l62.5 -62.5h-187.5v-125l-187.5 187.5l187.5 187.5v-125h187.5zM700.562 300l-60.5625 62.5h187.5v125
l187.5 -187.5l-187.5 -187.5v125h-187.5z" />
    <glyph glyph-name="glyph92" unicode="&#xe040;" 
d="M515 800c276.125 0 500 -223.875 500 -500s-223.875 -500 -500 -500s-500 223.875 -500 500s223.875 500 500 500zM702.5 175l125 125l-125 125v-62.5h-125v125h62.5l-125 125l-125 -125h62.5v-125h-125v62.5l-125 -125l125 -125v62.5h125v-125h-62.5l125 -125l125 125
h-62.5v125h125v-62.5z" />
    <glyph glyph-name="glyph93" unicode="&#xe041;" 
d="M1015 174.961h-750.234v-125.008l-249.766 187.512l249.766 187.512v-125.008h750.234v-125.008zM15 549.984v125.008h749.984v125.008l250.016 -187.512l-250.016 -187.512v125.008h-749.984z" />
    <glyph glyph-name="glyph94" unicode="&#xe042;" horiz-adv-x="780" 
d="M15 -200v142.812h750v-142.812h-750zM515 228.594h125l-249.625 -285.781l-250.375 285.781h125v571.406h250v-571.406z" />
    <glyph glyph-name="glyph95" unicode="&#xe043;" horiz-adv-x="780" 
d="M15 657.125v142.875h750v-142.875h-750zM265 371.406h-125l249.625 285.719l250.375 -285.719h-125v-571.406h-250v571.406z" />
    <glyph glyph-name="glyph96" unicode="&#xe044;" 
d="M765 675c137.938 0 250 -112.188 250 -250s-112.062 -250 -250 -250h-187.5v-187.5h125l-187.562 -187.5l-187.438 187.5h125v187.5h-187.5c-137.875 0 -250 112.188 -250 250s112.125 250 250 250c11.1562 0 22.0938 -1.59375 33.0938 -3.0625
c42.9062 75.9375 123.531 128.062 216.906 128.062c91.4375 0 172 -51.4062 215.562 -128.531c11.375 1.6875 22.7188 3.53125 34.4375 3.53125zM765 300c68.8438 0 125 56.0312 125 125s-56.1562 125 -125 125s-125 -56.0312 -125 -125h-125
c0 81.4062 39.6875 153.188 100.094 198.844c-23.125 31.125 -59.625 51.1562 -100.094 51.1562c-68.9062 0 -125 -56.0312 -125 -125c0 -15 2.625 -29.7812 7.8125 -43.5938l-117.062 -43.9375c-10.25 27.3438 -15.375 56.4062 -15.625 85.8125
c-64.4062 -1.8125 -125.125 -54.8125 -125.125 -123.281c0 -68.9688 56.0938 -125 125 -125h500z" />
    <glyph glyph-name="glyph97" unicode="&#xe045;" 
d="M765 675c137.938 0 250 -112.062 250 -250s-112.062 -250 -250 -250h-500c-137.875 0 -250 112.062 -250 250s112.125 250 250 250c11.1562 0 22.0938 -1.71875 33.0938 -3.1875c42.9062 76.1875 123.531 128.188 216.906 128.188c91.4375 0 172 -51.5 215.562 -128.406
c11.375 1.46875 22.7188 3.40625 34.4375 3.40625zM765 300c68.8438 0 125 56.1562 125 125s-56.1562 125 -125 125s-125 -56.1562 -125 -125h-125c0 81.4062 39.6875 153.062 100.094 198.719c-23.125 31.25 -59.625 51.2812 -100.094 51.2812
c-68.9062 0 -125 -56.1562 -125 -125c0 -15.125 2.625 -29.7812 7.8125 -43.7188l-117.062 -43.6875c-10.25 27.3438 -15.375 56.1562 -15.625 85.6875c-64.4062 -1.9375 -125.125 -54.6875 -125.125 -123.281c0 -68.8438 56.0938 -125 125 -125h500zM577.562 -12.5v-187.5
h-125v187.5h-125l187.562 187.5l187.375 -187.5h-124.938z" />
    <glyph glyph-name="glyph98" unicode="&#xe046;" horiz-adv-x="905" 
d="M640 800h125v-121.094c0 -83.5 -32.4688 -161.875 -91.5625 -220.938l-353.625 -351.562c-32.0938 -32.25 -50.1875 -73.9688 -53.4688 -118.906h123.656l-187.5 -187.5l-187.5 187.5h126.469c3.40625 78.25 34.1875 151.5 90.0938 207.281l353.625 351.688
c35.2812 35.2812 54.8125 82.375 54.8125 132.438v121.094zM763.531 -12.5h126.469l-187.5 -187.5l-187.5 187.5h123.656c-3.3125 44.9375 -21.375 86.8125 -53.5938 118.906l-70.0625 69.6875l88.625 88.1562l69.6875 -69.2188
c55.9062 -56.0312 86.8125 -129.281 90.2188 -207.531z" />
    <glyph glyph-name="glyph99" unicode="&#xe047;" horiz-adv-x="780" 
d="M15 800l750 -500l-750 -500v1000z" />
    <glyph glyph-name="glyph100" unicode="&#xe048;" 
d="M515 800c276.125 0 500 -223.875 500 -500s-223.875 -500 -500 -500s-500 223.875 -500 500s223.875 500 500 500zM327.5 50l500.25 250l-500.25 250v-500z" />
    <glyph glyph-name="glyph101" unicode="&#xe049;" horiz-adv-x="780" 
d="M15 -200v1000h250v-1000h-250zM515 -200v1000h250v-1000h-250z" />
    <glyph glyph-name="glyph102" unicode="&#xe04a;" 
d="M15 -200v1000h1000v-1000h-1000z" />
    <glyph glyph-name="glyph103" unicode="&#xe04b;" 
d="M15 175l500 625l500 -625h-1000zM15 -200v250h998.656v-250h-998.656z" />
    <glyph glyph-name="glyph104" unicode="&#xe04c;" 
d="M1015 -200l-750 500l750 500v-1000zM15 -75v750h250v-750h-250z" />
    <glyph glyph-name="glyph105" unicode="&#xe04d;" 
d="M15 800l750 -500l-750 -500v1000zM765 -75v750h250v-750h-250z" />
    <glyph glyph-name="glyph106" unicode="&#xe04e;" 
d="M871.688 31.6875l143.312 143.312v-375h-375l143.312 143.312l-143.312 143.312l88.375 88.375zM390 800l-143.312 -143.312l141.969 -141.844l-88.375 -88.375l-141.969 141.844l-143.312 -143.312v375h375zM390 86.625l-143.312 -143.312l143.312 -143.312h-375v375
l143.312 -143.312l143.312 143.312zM1015 800v-375l-143.312 143.312l-141.969 -141.844l-88.375 88.375l141.969 141.844l-143.312 143.312h375z" />
    <glyph glyph-name="glyph107" unicode="&#xe04f;" 
d="M934.188 -30.8125l80.8125 80.8125v-250h-250l80.8125 80.8125l-205.812 205.812l88.375 88.375zM95.8125 630.812l-80.8125 -80.8125v250h250l-80.8125 -80.8125l205.812 -205.812l-88.375 -88.375zM845.812 719.188l-80.8125 80.8125h250v-250l-80.8125 80.8125
l-205.812 -205.812l-88.375 88.375zM390 86.625l-205.812 -205.812l80.8125 -80.8125h-250v250l80.8125 -80.8125l205.812 205.812z" />
    <glyph glyph-name="glyph108" unicode="&#xe050;" 
d="M783.312 -56.6875l-143.312 -143.312v375h375l-143.312 -143.312l143.312 -143.312l-88.375 -88.375zM15 425l143.312 143.312l-141.844 141.969l88.375 88.375l141.844 -141.969l143.312 143.312v-375h-375zM15 -111.625l143.312 143.312l-143.312 143.312h375v-375
l-143.312 143.312l-143.312 -143.312zM640 425v375l143.312 -143.312l142.094 141.969l88.375 -88.375l-142.094 -141.969l143.312 -143.312h-375z" />
    <glyph glyph-name="glyph109" unicode="&#xe051;" 
d="M720.812 5.8125l-80.8125 -80.8125v250h250l-80.8125 -80.8125l205.812 -205.812l-88.375 -88.375zM219.594 507.156l-204.594 204.469l88.375 88.375l204.594 -204.469l82.0312 79.4688l-1.21875 -248.656l-248.781 -1.34375zM15 -111.625l205.812 205.812
l-80.8125 80.8125h250v-250l-80.8125 80.8125l-205.812 -205.812zM890.969 425h-250.969v250.906l81.1875 -81.0938l205.188 205.188l88.625 -88.6875l-205.062 -205.188z" />
    <glyph glyph-name="glyph110" unicode="&#xe052;" 
d="M640 175v-125h-62.5v-187.5c0 -34.5312 -27.8438 -62.5 -62.5 -62.5c-34.4375 0 -62.5 27.9688 -62.5 62.5v187.5h-62.5v125h62.5v562.5c0 34.5312 28.0625 62.5 62.5 62.5c34.6562 0 62.5 -27.9688 62.5 -62.5v-562.5h62.5zM1015 550v-125h-62.5v-562.5
c0 -34.5312 -27.8438 -62.5 -62.5 -62.5c-34.4375 0 -62.5 27.9688 -62.5 62.5v562.5h-62.5v125h62.5v187.5c0 34.5312 28.0625 62.5 62.5 62.5c34.6562 0 62.5 -27.9688 62.5 -62.5v-187.5h62.5zM265 425v-125h-62.5v-437.5c0 -34.5312 -27.8438 -62.5 -62.5 -62.5
c-34.4375 0 -62.5 27.9688 -62.5 62.5v437.5h-62.5v125h62.5v312.5c0 34.5312 28.0625 62.5 62.5 62.5c34.6562 0 62.5 -27.9688 62.5 -62.5v-312.5h62.5z" />
    <glyph glyph-name="glyph111" unicode="&#xe053;" 
d="M1015 675h-1000v125h1000v-125zM640 425h-625v125h625v-125zM1015 50h-1000v125h1000v-125zM765 -200h-750v125h750v-125zM1015 -137.5c0 -34.5312 -28.0625 -62.5 -62.5 -62.5c-34.6562 0 -62.625 27.9688 -62.625 62.5s27.9688 62.5 62.625 62.5
c34.4375 0 62.5 -27.9688 62.5 -62.5z" />
    <glyph glyph-name="glyph112" unicode="&#xe054;" 
d="M1015 675h-1000v125h1000v-125zM640 425h-625v125h625v-125zM1015 172.312h-1000v125h1000v-125zM15 -137.5c0 41.667 20.833 62.5 62.5 62.5s62.5 -20.833 62.5 -62.5s-20.833 -62.5 -62.5 -62.5s-62.5 20.833 -62.5 62.5zM390 -137.5c0 -17 -6.16699 -31.667 -18.5 -44
s-27 -18.5 -44 -18.5c-17.3223 0 -32.0898 6.09863 -44.3037 18.2959s-18.3213 26.9316 -18.3213 44.2041s6.10742 32.0068 18.3213 44.2041s26.9824 18.2959 44.3037 18.2959c17 0 31.667 -6.16699 44 -18.5s18.5 -27 18.5 -44zM515 -137.5
c0.000976562 41.667 20.834 62.5 62.5 62.5c41.667 0 62.5 -20.833 62.5 -62.5s-20.833 -62.5 -62.5 -62.5s-62.5 20.833 -62.5 62.5z" />
    <glyph glyph-name="glyph113" unicode="&#xe055;" 
d="M15 737.496c0 41.6689 20.835 62.5039 62.5039 62.5039s62.5039 -20.835 62.5039 -62.5039s-20.835 -62.5039 -62.5039 -62.5039s-62.5039 20.835 -62.5039 62.5039zM15 487.48c0 41.6689 20.835 62.5039 62.5039 62.5039s62.5039 -20.835 62.5039 -62.5039
s-20.835 -62.5039 -62.5039 -62.5039s-62.5039 20.835 -62.5039 62.5039zM15 237.465c0 41.6689 20.835 62.5039 62.5039 62.5039s62.5039 -20.835 62.5039 -62.5039s-20.835 -62.5039 -62.5039 -62.5039s-62.5039 20.835 -62.5039 62.5039zM15 -12.5508
c0 41.6689 20.835 62.5039 62.5039 62.5039s62.5039 -20.835 62.5039 -62.5039s-20.835 -62.5039 -62.5039 -62.5039s-62.5039 20.835 -62.5039 62.5039zM265.016 674.992v125.008h749.984v-125.008h-749.984zM265.016 424.977v125.008h749.984v-125.008h-749.984z
M265.016 174.961v125.008h749.984v-125.008h-749.984zM265.016 -75.0547v125.008h749.984v-125.008h-749.984z" />
    <glyph glyph-name="glyph114" unicode="&#xe056;" 
d="M15 737.5c0 41.667 20.833 62.5 62.5 62.5s62.5 -20.833 62.5 -62.5s-20.833 -62.5 -62.5 -62.5s-62.5 20.833 -62.5 62.5zM265 675v125h750v-125h-750zM265 487.5c0 41.667 20.833 62.5 62.5 62.5s62.5 -20.833 62.5 -62.5s-20.833 -62.5 -62.5 -62.5
s-62.5 20.833 -62.5 62.5zM515 425v125h500v-125h-500zM265 -12.5c0 41.667 20.833 62.5 62.5 62.5s62.5 -20.833 62.5 -62.5s-20.833 -62.5 -62.5 -62.5s-62.5 20.833 -62.5 62.5zM515 -75v125h500v-125h-500zM515 237.5c0.000976562 41.667 20.834 62.5 62.5 62.5
c41.667 0 62.5 -20.833 62.5 -62.5s-20.833 -62.5 -62.5 -62.5s-62.5 20.833 -62.5 62.5zM765 175v125h250v-125h-250z" />
    <glyph glyph-name="glyph115" unicode="&#xe057;" 
d="M1015 -75l-125 -125l-437.5 437.625l-187.5 -187.5l-250 749.875l750 -250l-187.5 -187.5z" />
    <glyph glyph-name="glyph116" unicode="&#xe058;" 
d="M390 305.375c0 83.333 41.667 125 125 125s125 -41.667 125 -125s-41.667 -125 -125 -125s-125 41.667 -125 125zM907.344 611.031c71.7705 -90.8154 107.656 -192.701 107.656 -305.656c0 -67.8115 -13.2002 -132.582 -39.5996 -194.311
c-26.4004 -61.7285 -61.916 -114.908 -106.549 -159.541s-97.8125 -80.1484 -159.541 -106.549c-61.7285 -26.3994 -126.499 -39.5996 -194.311 -39.5996s-132.582 13.2002 -194.311 39.5996c-61.7285 26.4004 -114.908 61.916 -159.541 106.549
s-80.1484 97.8125 -106.549 159.541c-26.3994 61.7285 -39.5996 126.499 -39.5996 194.311c0 111.533 35.2812 212.929 105.844 304.188c11.6758 -8.79199 23.9258 -13.1875 36.75 -13.1875c17.3281 0 32.0771 6.08496 44.2461 18.2539s18.2539 26.918 18.2539 44.2461
c0 12.7891 -4.52051 25.1641 -13.5625 37.125c72.4873 57.4258 154.883 92.0928 247.188 104c1.41699 -16.1016 7.9541 -29.6484 19.6133 -40.6387c11.6582 -10.9912 25.5479 -16.4863 41.668 -16.4863c16.0684 0 29.8965 5.4209 41.4834 16.2617
c11.5879 10.8418 18.1865 24.2236 19.7979 40.1445c90.6689 -11.2656 172.294 -44.8799 244.875 -100.844c-10.083 -12.2812 -15.125 -25.4688 -15.125 -39.5625c0 -17.3027 6.10547 -32.0449 18.3174 -44.2275c12.2109 -12.1816 26.9385 -18.2725 44.1826 -18.2725
c13.9131 0 26.8506 4.88574 38.8125 14.6562zM515 55.375c69.0459 0 127.974 24.3965 176.784 73.1904s73.2158 107.73 73.2158 176.81c0 69.1689 -24.5 128.169 -73.5 177l-176.5 176.5l-176.75 -176.75c-48.833 -48.833 -73.25 -107.75 -73.25 -176.75
c0 -69.0312 24.4092 -127.956 73.2266 -176.773s107.742 -73.2266 176.773 -73.2266z" />
    <glyph glyph-name="glyph117" unicode="&#xe059;" 
d="M1015 800v-750h-250v-250h-750v750h250v250h750zM640 -75v125h-375v250h-125v-375h500zM890 175v375h-500v-375h500z" />
    <glyph glyph-name="glyph118" unicode="&#xe05a;" 
d="M890 675h125v-125h-125v-562.5c0 -103.5 -84 -187.5 -187.5 -187.5h-375c-103.5 0 -187.5 84 -187.5 187.5v562.5h-125v125h125h125c0 69.0938 55.9062 125 125 125h250c69.0938 0 125 -55.9062 125 -125h125zM390 50c34.5312 0 62.5 27.9688 62.5 62.5
s-27.9688 62.5 -62.5 62.5s-62.5 -27.9688 -62.5 -62.5s27.9688 -62.5 62.5 -62.5zM390 300c34.5312 0 62.5 27.9688 62.5 62.5s-27.9688 62.5 -62.5 62.5s-62.5 -27.9688 -62.5 -62.5s27.9688 -62.5 62.5 -62.5zM640 50c34.5312 0 62.5 27.9688 62.5 62.5
s-27.9688 62.5 -62.5 62.5s-62.5 -27.9688 -62.5 -62.5s27.9688 -62.5 62.5 -62.5zM640 300c34.5312 0 62.5 27.9688 62.5 62.5s-27.9688 62.5 -62.5 62.5s-62.5 -27.9688 -62.5 -62.5s27.9688 -62.5 62.5 -62.5z" />
    <glyph glyph-name="glyph119" unicode="&#xe05b;" 
d="M1015 675v-250h-125v-62.5c0 -34.4375 -28.0625 -62.5 -62.5 -62.5h-750c-34.4375 0 -62.5 28.0625 -62.5 62.5v375c0 34.375 28.0625 62.5 62.5 62.5h750c34.4375 0 62.5 -28.125 62.5 -62.5v-62.5h125zM765 425v250h-250v-250h250z" />
    <glyph glyph-name="glyph120" unicode="&#xe05c;" 
d="M1015 675v-250h-125v-62.5c0 -34.3125 -28.0625 -62.5 -62.5 -62.5h-750c-34.4375 0 -62.5 28.1875 -62.5 62.5v375c0 34.3125 28.0625 62.5 62.5 62.5h750c34.4375 0 62.5 -28.1875 62.5 -62.5v-62.5h125zM765 425v250h-625v-250h625z" />
    <glyph glyph-name="glyph121" unicode="&#xe05d;" 
d="M890 675h125v-250h-125v-62.5c0 -34.4375 -28.0625 -62.5 -62.5 -62.5h-750c-34.4375 0 -62.5 28.0625 -62.5 62.5v123.656h199.594c25.75 -72.625 94.5 -125 176.031 -125v63.8438h127.062v62.5h-127.062v125h124.5v62.5h-124.5v61.1562
c-81.5625 0 -150.281 -52.375 -176.031 -125h-199.594v126.344c0 34.375 28.0625 62.5 62.5 62.5h750c34.4375 0 62.5 -28.125 62.5 -62.5v-62.5z" />
    <glyph glyph-name="glyph122" unicode="&#xe05e;" 
d="M764.875 425c125.125 0 250.125 -66.4062 250.125 -250c0 -179.688 -125 -250 -250.125 -250h-124.875c-68.9688 0 -125 -55.9062 -125 -125c-138.062 0 -250.125 111.938 -250.125 250v125c0 49.8125 11.375 90.625 29.0625 125h-29.0625
c-124.875 0 -249.875 70.3125 -249.875 250c0 183.594 125 250 249.875 250h250.125c125 0 249.875 -77.4062 249.875 -250v-125zM264.875 425h125.125c81.5312 0 154.062 -39.3125 199.719 -100.031c30.625 22.8125 50.2812 59.1875 50.2812 100.031v125
c0 108.75 -78.25 125 -125 125h-250.125c-124.875 0 -124.875 -87.5312 -124.875 -125c0 -30.875 0 -125 124.875 -125zM764.875 50c125.125 0 125.125 94.0625 125.125 125c0 37.4062 0 125 -125.125 125l-34.5312 0.0625l0.125 0.0625
c-43.3438 -74.4688 -123.062 -125.125 -215.469 -125.125c0 48.2188 -28.1875 88.875 -68.25 109.75c-28.3125 -17.8438 -56.75 -52.5625 -56.75 -109.75v-125c0 -40.7812 19.6562 -77.1562 50.0625 -99.9688c45.625 60.6562 118.281 99.9688 199.938 99.9688h124.875z
M756.219 362.688c-0.84375 -2.875 -1.84375 -5.6875 -2.6875 -8.46875c0.84375 2.78125 1.9375 5.59375 2.6875 8.46875z" />
    <glyph glyph-name="glyph123" unicode="&#xe05f;" horiz-adv-x="780" 
d="M390 300c-69.0938 0 -125 55.9688 -125 125v250c0 69.0312 55.9062 125 125 125s125 -55.9688 125 -125v-250c0 -69.0312 -55.9062 -125 -125 -125zM515 -75c69.0938 0 125 -55.9062 125 -125h-500c0 69.0938 55.9062 125 125 125h62.5v131.344
c-177 29.9062 -312.5 183.281 -312.5 368.656v60.5625c0 34.5312 27.9688 62.5 62.5 62.5s62.5 -27.9688 62.5 -62.5v-60.5625c0 -137.875 112.062 -250 250 -250s250 112.125 250 250v60.5625c0 34.5312 27.9688 62.5 62.5 62.5s62.5 -27.9688 62.5 -62.5v-60.5625
c0 -185.375 -135.5 -338.75 -312.5 -368.656v-131.344h62.5z" />
    <glyph glyph-name="glyph124" unicode="&#xe060;" 
d="M889.281 550l125.719 125l-122.562 125h122.562v-1000h-1000v1000h125.5l125.469 -125.5l-126.938 -124.5h125.25l127.656 125.5l-124.5 124.5h176.75l125.375 -125.5l-126.844 -124.5h147.594l127.688 125.5l-124.625 124.5h173.938l122.688 -125.5l-124.125 -124.5
h123.406zM890 -73.6562v125h-750v-125h750zM890 175v125h-750v-125h750z" />
    <glyph glyph-name="glyph125" unicode="&#xe061;" 
d="M952.5 300c34.5312 0 62.5 -27.9688 62.5 -62.5v-250c0 -34.5312 -27.9688 -62.5 -62.5 -62.5h-187.5v375v125c0 137.938 -112.062 250 -250 250s-250 -112.062 -250 -250v-125v-375h-187.5c-34.5312 0 -62.5 27.9688 -62.5 62.5v250c0 34.5312 27.9688 62.5 62.5 62.5
h62.5v125c0 207.031 167.969 375 375 375s375 -167.969 375 -375v-125h62.5z" />
    <glyph glyph-name="glyph126" unicode="&#xe062;" horiz-adv-x="780" 
d="M390 300c207.031 0 375 -167.969 375 -375c0 -69.0938 -55.9062 -125 -125 -125h-500c-69.0938 0 -125 55.9062 -125 125c0 207.031 167.969 375 375 375zM202.5 612.5c0 125 62.5 187.5 187.5 187.5s187.5 -62.5 187.5 -187.5s-62.5 -187.5 -187.5 -187.5
s-187.5 62.5 -187.5 187.5z" />
    <glyph glyph-name="glyph127" unicode="&#xe063;" horiz-adv-x="655" 
d="M327.5 674.75c-103.469 0 -187.562 -84.3438 -187.562 -188c0 -59.1875 27.0938 -113.625 74.2188 -149.156c70.5312 -53.3438 99.125 -112.312 108.875 -161.875h8.9375c9.8125 49.5625 38.3125 108.531 108.875 161.875c47.1875 35.5 74.1562 89.9375 74.1562 149.156
c0 103.656 -84.0312 188 -187.5 188zM327.5 800v0c172.594 0 312.5 -140.25 312.5 -313.219c0 -102.562 -48.2188 -192.156 -124.031 -249.281c-34.7812 -26.375 -63.5312 -60.3125 -63.5312 -107.188v-79.8438h-249.812v79.8438c0 46.875 -28.75 80.8125 -63.5938 107.188
c-75.75 57.125 -124.031 146.719 -124.031 249.281c0 172.969 139.906 313.219 312.5 313.219zM202.625 -200v125.25h249.812v-125.25h-249.812z" />
    <glyph glyph-name="glyph128" unicode="&#xe064;" 
d="M515 800c276.125 0 500 -223.875 500 -500s-223.875 -500 -500 -500s-500 223.875 -500 500s223.875 500 500 500zM515.969 177.062c68.625 0 124.031 55.4375 124.031 123.906c0 68.625 -55.4062 124.031 -124.031 124.031
c-68.375 0 -123.906 -55.4375 -123.906 -124.031c0 -68.5 55.5312 -123.906 123.906 -123.906z" />
    <glyph glyph-name="glyph129" unicode="&#xe065;" 
d="M1015 -137.5c0 -34.5312 -27.9688 -62.5 -62.5 -62.5h-875c-34.5312 0 -62.5 27.9688 -62.5 62.5v562.5h1000v-562.5zM390 674.938h625v-124.938h-1000v250h375v-125.062z" />
    <glyph glyph-name="glyph130" unicode="&#xe066;" 
d="M690.281 800l324.719 -321.906v-678.094l-250.125 207.281l-250.125 -207.281l-250.469 207.531l-249.281 -207.531v1000h675.281zM577.5 362.5h312.5l-312.5 312.5v-312.5z" />
    <glyph glyph-name="glyph131" unicode="&#xe067;" 
d="M1015 550c0 -93.9375 -52.5 -174.812 -129.156 -217.531c1 -10.5625 3.1875 -20.6875 3.1875 -31.5c0 -207.156 -167.844 -375 -375 -375c-77.2812 0 -149.062 23.4375 -208.75 63.4688l-290.281 -189.438l190.281 288.562
c-41.625 60.3125 -66.2812 133.438 -66.2812 212.406c0 207.156 167.844 375 375 375c11.7188 0 22.8438 -2.375 34.3125 -3.46875c0 -0.0625 -0.125 -0.125 -0.125 -0.1875c43 75.875 123.562 127.688 216.812 127.688c137.938 0 250 -112 250 -250zM514.031 50.9688
c137.562 0 249.375 111.594 249.875 249.156c-22.3438 0.125 -43.7188 4.03125 -64.3438 9.65625l-98.1562 -98.1562c-48.8125 -48.8125 -127.938 -48.8125 -176.75 0s-48.8125 127.938 0 176.75l99.125 99.1875c-5.125 20.0938 -8.78125 40.7188 -8.78125 62.4375
c0 0.5 0.125 0.96875 0.125 1.46875c0 -0.1875 -0.125 -0.375 -0.125 -0.625c-0.25 0 -0.59375 0.125 -0.96875 0.125c-137.938 0 -250 -112.125 -250 -250c0 -137.938 112.062 -250 250 -250zM765 425c68.8438 0 125 56.0938 125 125s-56.1562 125 -125 125
s-125 -56.0938 -125 -125s56.1562 -125 125 -125z" />
    <glyph glyph-name="glyph132" unicode="&#xe068;" horiz-adv-x="655" 
d="M548.453 708.438c122.094 -122 122.094 -319.938 0 -441.875c0 0 -220.938 -216.562 -220.938 -466.562c0 250 -220.938 466.562 -220.969 466.531c-122.062 121.969 -122.062 319.906 0 441.906c122.094 122.062 319.844 122.062 441.906 0zM327.516 362.312
c69.0938 0 125 55.9062 125 125s-55.9062 125 -125 125s-125 -55.9062 -125 -125s55.9062 -125 125 -125z" />
    <glyph glyph-name="glyph133" unicode="&#xe069;" horiz-adv-x="905" 
d="M140 800h750v-1000h-750c-69.0312 0 -125 55.9062 -125 125v750c0 69.0938 55.9688 125 125 125zM765 -75v750h-124.531v-252.188l-125.969 125.969l-125 -125v251.219h-124.5v-750h500z" />
    <glyph glyph-name="glyph134" unicode="&#xe06a;" 
d="M515 675c0 0 125 125 500 125v-750c-378.906 0 -500 -125 -500 -125s-121.094 125 -500 125v750c375 0 500 -125 500 -125zM140 675v-503.406c158.875 -13.4375 256.344 -50.1875 312.5 -79.8438v503.406c-56.1562 29.7812 -153.625 66.5312 -312.5 79.8438zM890 171.594
v503.406c-158.938 -13.3125 -256.344 -50.0625 -312.5 -79.8438v-503.406c56.1562 29.6875 153.562 66.4062 312.5 79.8438z" />
    <glyph glyph-name="glyph135" unicode="&#xe06b;" 
d="M15 -200v625h1000v-625h-1000zM577.5 550v250h312.5l125 -250h-437.5zM452.5 800v-250h-437.5l125 250h312.5z" />
    <glyph glyph-name="glyph136" unicode="&#xe06c;" 
d="M827.5 675h187.5v-875h-1000v875h187.5v-63.9688c0 -69.0938 55.9062 -125 125 -125s125 55.9062 125 125v63.9688h125v-63.9688c0 -69.0938 55.9062 -125 125 -125s125 55.9062 125 125v63.9688zM327.5 -75v125h-125v-125h125zM327.5 175v125h-125v-125h125zM577.5 -75
v125h-125v-125h125zM577.5 174.75v125h-125v-125h125zM702.5 -75l125 125h-125v-125zM827.5 175v125h-125v-125h125zM265 612.5v125c0 34.5312 27.9688 62.5 62.5 62.5s62.5 -27.9688 62.5 -62.5v-125c0 -34.5312 -27.9688 -62.5 -62.5 -62.5s-62.5 27.9688 -62.5 62.5z
M640 612.5v125c0 34.5312 27.9688 62.5 62.5 62.5s62.5 -27.9688 62.5 -62.5v-125c0 -34.5312 -27.9688 -62.5 -62.5 -62.5s-62.5 27.9688 -62.5 62.5z" />
    <glyph glyph-name="glyph137" unicode="&#xe06d;" 
d="M15 175v312.5c0 172.594 139.906 312.5 312.5 312.5h312.5c207.156 0 375 -167.969 375 -375s-167.844 -375 -375 -375h-250c-68.9688 0 -125 -55.9062 -125 -125c-137.938 0 -250 111.938 -250 250z" />
    <glyph glyph-name="glyph138" unicode="&#xe06e;" horiz-adv-x="780" 
d="M515 800c138.062 0 250 -111.938 250 -250v-500c0 -138.062 -111.938 -250 -250 -250h-250c-138.062 0 -250 111.938 -250 250v500c0 138.062 111.938 250 250 250h250zM390 -139.438c35.5938 0 64.4375 28.8125 64.4375 64.4375s-28.875 64.4375 -64.4375 64.4375
s-64.4375 -28.8125 -64.4375 -64.4375s28.8438 -64.4375 64.4375 -64.4375zM640 50v500c0 68.8438 -56.1562 125 -125 125h-250c-68.9062 0 -125 -56.1562 -125 -125v-500h500z" />
    <glyph glyph-name="glyph139" unicode="&#xe06f;" 
d="M765 -200v1000h250v-1000h-250zM390 -200v750h250v-750h-250zM15 -200v500h250v-500h-250z" />
    <glyph glyph-name="glyph140" unicode="&#xe070;" 
d="M515 175c0 83.333 41.667 125 125 125s125 -41.667 125 -125s-41.667 -125 -125 -125s-125 41.667 -125 125zM890 550c34.667 0 64.167 -12.167 88.5 -36.5s36.5 -53.833 36.5 -88.5v-625h-1000v625c0 34.667 12.167 64.167 36.5 88.5s53.833 36.5 88.5 36.5h250.125
l106.625 206.719c4.08496 12.7148 11.5781 23.1064 22.4785 31.1768c10.9023 8.06934 23.2432 12.1045 37.0215 12.1045h171.625c13.6172 0 25.8428 -3.94238 36.6758 -11.8262c10.834 -7.88477 18.3896 -18.0781 22.668 -30.5801zM202.5 300c17 0 31.667 6.16699 44 18.5
s18.5 27 18.5 44s-6.16699 31.667 -18.5 44s-27 18.5 -44 18.5s-31.667 -6.16699 -44 -18.5c-12.334 -12.333 -18.5 -27 -18.5 -44s6.16699 -31.667 18.5 -44s27 -18.5 44 -18.5zM640 -75c69.333 0 128.333 24.333 177 73s73 107.667 73 177s-24.333 128.333 -73 177
s-107.667 73 -177 73s-128.333 -24.333 -177 -73s-73 -107.667 -73 -177s24.333 -128.333 73 -177s107.667 -73 177 -73z" />
    <glyph glyph-name="glyph141" unicode="&#xe071;" 
d="M265 175c-138.062 0 -250 111.938 -250 250s111.938 250 250 250v-500zM390 675l250 125v-750l-250 125v500zM1015 362.5h-250v125h250v-125z" />
    <glyph glyph-name="glyph142" unicode="&#xe072;" 
d="M265 175c-138.062 0 -250 111.938 -250 250s111.938 250 250 250v-500zM390 675l250 125v-750l-250 125v500zM765.125 175.125v125c10.375 0 20.875 1.34375 31.375 3.90625c54.8125 13.9062 93.5 63.7188 93.5 120.969s-38.6875 106.938 -94.125 120.969
c-9.875 2.4375 -20.375 3.78125 -30.75 3.78125v125c20.5 0 41 -2.5625 61.1562 -7.4375c111.219 -28.3125 188.719 -127.812 188.719 -242.312c0 -114.625 -77.5 -214.219 -188.344 -242.312c-20.75 -5 -41.2812 -7.5625 -61.5312 -7.5625v0z" />
    <glyph glyph-name="glyph143" unicode="&#xe073;" 
d="M1015 675v-250h-125v-62.5c0 -34.4375 -28.0625 -62.5 -62.5 -62.5h-750c-34.4375 0 -62.5 28.0625 -62.5 62.5v375c0 34.3125 28.0625 62.5 62.5 62.5h750c34.4375 0 62.5 -28.1875 62.5 -62.5v-62.5h125z" />
    <glyph glyph-name="glyph144" unicode="&#xe074;" 
d="M369.25 183.188c9.15625 -10.25 18.6875 -19.7812 28.6875 -28.8125c-57.875 -57.875 -137.938 -137.969 -177.625 -177.75c-13.5625 13.6875 -15.375 15.375 -28.8125 28.8125c39.8125 39.6875 119.781 119.875 177.75 177.75zM644.156 800
c204.469 0 370.844 -166.25 370.812 -370.75c0 -204.344 -166.375 -370.594 -370.844 -370.594c-48.8125 0 -95.2188 10 -137.938 27.3438l-285.875 -286l-205.312 205.438l285.75 285.781c-17.2188 42.7188 -27.2188 89.125 -27.2188 138.062
c0 204.469 166.281 370.719 370.625 370.719zM644.156 183.531c135.625 0 245.969 110.375 245.969 245.719c0 135.5 -110.344 245.844 -245.969 245.844c-135.375 0 -245.719 -110.344 -245.719 -245.844c0 -135.375 110.344 -245.719 245.719 -245.719z" />
    <glyph glyph-name="glyph145" unicode="&#xe075;" horiz-adv-x="780" 
d="M452.5 800c172.25 0 312.5 -140.125 312.5 -312.5v-500c0 -103.406 -84.0938 -187.5 -187.5 -187.5h-375c-103.406 0 -187.5 84.0938 -187.5 187.5v437.5h125.125v62.5c0 172.375 140.25 312.5 312.375 312.5zM389.875 50c34.5625 0 62.5 27.9688 62.5 62.5
s-27.9688 62.5 -62.5 62.5c-34.4062 0 -62.375 -27.9688 -62.375 -62.5s27.9688 -62.5 62.375 -62.5zM640 425v62.5c0 103.406 -84.0938 187.5 -187.5 187.5c-103.281 0 -187.375 -84.0938 -187.375 -187.5v-62.5h374.875z" />
    <glyph glyph-name="glyph146" unicode="&#xe076;" horiz-adv-x="780" 
d="M452.625 800c172.125 0 312.375 -140.125 312.375 -312.5v-500c0 -103.406 -84.2188 -187.5 -187.5 -187.5h-375c-103.281 0 -187.5 84.0938 -187.5 187.5v437.5h625v62.5c0 103.406 -84.0938 187.5 -187.375 187.5c-103.5 0 -187.5 -84.0938 -187.5 -187.5h-124.875
c0 172.375 140 312.5 312.375 312.5zM389.875 50c34.6562 0 62.5 27.9688 62.5 62.5s-27.8438 62.5 -62.5 62.5c-34.4375 0 -62.5 -27.9688 -62.5 -62.5s28.0625 -62.5 62.5 -62.5z" />
    <glyph glyph-name="glyph147" unicode="&#xe077;" 
d="M996.648 781.688c24.4062 -24.4062 24.4062 -63.9688 -0.03125 -88.375l-127.562 -127.312c80.3438 -121.219 67.1562 -286.375 -39.7812 -393.188l-187.125 -187.5c-61.0312 -61.0312 -140.969 -91.5625 -220.938 -91.5625c-60.0625 0 -120.25 17.2188 -172.375 51.875
l-127.188 -127.312c-12.2188 -12.2188 -28.1875 -18.3125 -44.1875 -18.3125s-31.9688 6.09375 -44.1562 18.3125c-24.4062 24.4062 -24.4062 63.9688 0 88.375l127.188 127.312c-80.3438 121.219 -67.1562 286.375 39.7812 393.188l187.5 187.5
c61.0312 61.0312 140.969 91.5625 220.938 91.5625c60.0625 0 119.875 -17.2188 172 -51.875l127.188 127.312c24.4062 24.4062 64.3438 24.4062 88.75 0zM795.836 393.75c0 28.4375 -6.8125 55.5312 -18.8125 80.3125l-94.9688 -95.2188
c-12.1875 -12.2188 -28.1875 -18.3125 -44.0625 -18.3125c-16 0 -31.9688 6.09375 -44.1875 18.3125c-24.4062 24.4062 -24.4062 63.9688 0 88.375l95.0938 95.2188c-24.875 11.8438 -51.875 18.8125 -80.1875 18.8125c-50.0625 0 -97.1562 -19.5312 -132.562 -54.9375
l-187.5 -187.5c-35.4062 -35.4062 -54.9375 -82.5 -54.9375 -132.562c0 -28.4375 6.84375 -55.5312 18.8125 -80.3125l93.25 93.25c24.4062 24.4062 63.9688 24.4062 88.375 0s24.4062 -63.9688 0 -88.375l-93.25 -93.25c24.9062 -11.8438 52 -18.8125 80.3125 -18.8125
c50.0625 0 97.1562 19.5312 132.562 54.9375l187.125 187.5c35.4062 35.4062 54.9375 82.5 54.9375 132.562z" />
    <glyph glyph-name="glyph148" unicode="&#xe078;" 
d="M1002.72 623.656c7.34375 -23.4375 12.2188 -47.8438 12.2188 -73.6562c0 -138 -111.812 -250 -250 -250c-38.3438 0 -74.4688 9.46875 -107 24.9688l-500.719 -500.562c-14.9062 -15.125 -35.7812 -24.4062 -58.8438 -24.4062c-46.1562 0 -83.375 37.3438 -83.375 83.25
c0 23.1875 9.40625 43.9375 24.4062 59.0938l500.625 500.469c-15.625 32.6562 -25.0312 68.6875 -25.0312 107.188c0 138 111.938 250 249.938 250c25.1562 0 48.8438 -4.8125 71.7812 -11.7188l-155.031 -154.969v-166.625h164.062z" />
    <glyph glyph-name="glyph149" unicode="&#xe079;" 
d="M515 675c-206.781 0 -375 -168.219 -375 -375s168.219 -375 375 -375s375 168.219 375 375s-168.219 375 -375 375zM515 800v0c276.125 0 500 -223.875 500 -500s-223.875 -500 -500 -500s-500 223.875 -500 500s223.875 500 500 500zM684.438 219.438l-88.375 -88.375
l-122.562 122.562c-13.0625 11.5938 -21.7188 27.8125 -21.7188 46.625v249.75h125.719v-223.5z" />
  </font>
</defs>
</svg>
